1. This site uses cookies. By continuing to use this site, you are agreeing to our use of cookies. Learn More.
  2.  
    IT is to inform all the members not to post their own site/blog/forum links in the threads or the back links in their signatures. Any member found doing so will get banned without any prior warning. Facing any problems or want to complaint about someone, just contact the Staff Members Only Urdu/Roman Urdu or English can be used here, other languages are not allowed and will not be entertained at all.


    Please don’t be silly around here commenting the file contains virus. We cannot help newbies who think scripts or cracks are virus.

    Dismiss Notice
  3. IT is to inform all the members not to post their own site/blog/forum links in the threads or the back links in their signatures. Any member found doing so will get banned without any prior warning. Facing any problems or want to complaint about someone, just contact the Staff Members Only Urdu/Roman Urdu or English can be used here, other languages are not allowed and will not be entertained at all.

    Please don’t be silly around here commenting the file contains virus. We cannot help newbies who think scripts or cracks are virus.

    Dismiss Notice
  4. Welcome to the forum of C.M Team Pakistan:

    Get Untouched/Customized/Universal Ghost OSs, Games, Silent /Auto Installers, AIO Packages, Device Drivers, Utilities, Video Projects, Video Tutorials/Editors and much much more..... By Torrent and/or Direct Downloads "Totally For Free"

    Before Starting Your Work Hare Must Read Fourm Rules 

    Dismiss Notice
You are currently not signed in. If you are already a registered user you can LOGIN HERE. If not, you can register and gain access to our wonderful forums, view topics, make posts, and more! So if your not already a user, you can register by CLICKING HERE.

MultiLinks-) Ishq Click (2016) - 720p - WebHD-Rip - Hindi - x264 - AAC - 2.0 - ESub - Mafiaking - M2Tv

deletekhan Jan 10, 2017

Users Viewing Thread (Users: 0, Guests: 0)

  1. deletekhan

    deletekhan C.M Uploader
    • 60/70

    1,207
    3
    60
    [​IMG]

    [​IMG]
    Code:
    Ratings: 5.0/10
    
    Genere: Drama, Romance
    
    General
    Unique ID : 203468570182794567847206885725709562779 (0x99129F0755B4B678BB796EFC6040739B)
    Complete name : Ishq Click (2016) - 720p - WebHD-Rip - Hindi - x264 - AAC - 2.0 - ESub - Mafiaking - M2Tv.mkv
    Format : Matroska
    Format version : Version 4 / Version 2
    File size : 1.03 GiB
    Duration : 2 h 15 min
    Overall bit rate : 1 086 kb/s
    Movie name : Ishq Click (2016) - 720p - WebHD-Rip - Hindi - x264 - AAC - 2.0 - ESub - Mafiaking - M2Tv
    Encoded date : UTC 2016-11-29 15:39:52
    Writing application : mkvmerge v7.0.0 ('Where We Going') 32bit built on Jun 9 2014 15:08:34
    Writing library : libebml v1.3.0 + libmatroska v1.4.1
    
    Video
    ID : 1
    Format : AVC
    Format/Info : Advanced Video Codec
    Format profile : [email protected]
    Format settings, CABAC : Yes
    Format settings, ReFrames : 3 frames
    Codec ID : V_MPEG4/ISO/AVC
    Duration : 2 h 15 min
    Bit rate : 925 kb/s
    Width : 1 280 pixels
    Height : 544 pixels
    Display aspect ratio : 2.35:1
    Frame rate mode : Constant
    Frame rate : 24.000 FPS
    Color space : YUV
    Chroma subsampling : 4:2:0
    Bit depth : 8 bits
    Scan type : Progressive
    Bits/(Pixel*Frame) : 0.055
    Stream size : 897 MiB (85%)
    Title : Mafiaking
    Language : Hindi
    Default : Yes
    Forced : No
    
    Audio
    ID : 2
    Format : AAC
    Format/Info : Advanced Audio Codec
    Format profile : LC
    Codec ID : A_AAC
    Duration : 2 h 15 min
    Bit rate : 160 kb/s
    Channel(s) : 2 channels
    Channel positions : Front: L R
    Sampling rate : 44.1 kHz
    Frame rate : 43.066 FPS (1024 spf)
    Compression mode : Lossy
    Stream size : 155 MiB (15%)
    Title : Mafiaking
    Language : Hindi
    Default : Yes
    Forced : No
    

    [​IMG]

    [​IMG]
    [​IMG]
    [​IMG]



    [​IMG]
    Code:
    http://rg.to/file/c333415fd41c1ccf8e492b26c63f5b31/Ishq_Click_(2016)_-_720p_-_WebHD-Rip_-_Hindi_-_x264_-_AAC_-_2.0_-_ESub_-_Mafiaking_-_M2Tv.mkv.html
    http://www.arabloads.net/9m471nof0bbe/Ishq_Click_(2016)_-_720p_-_WebHD-Rip_-_Hindi_-_x264_-_AAC_-_2.0_-_ESub_-_Mafiaking_-_M2Tv.mkv.html
    http://www.heroupload.com/178b9c44dda8d780/Ishq_Click_(2016)_-_720p_-_WebHD-Rip_-_Hindi_-_x264_-_AAC_-_2.0_-_ESub_-_Mafiaking_-_M2Tv.mkv
     
    Loading...

Share This Page