- Not a member yet?  Sign Up!

Welcome to our forum!

A compelling community experience.

Intuitive. Social. Engaging. Fast. XenForo brings a fresh outlook to forum software.

Registration is free!

  1. This site uses cookies. By continuing to use this site, you are agreeing to our use of cookies. Learn More.
  2. IT is to inform all the members not to post their own site/blog/forum links in the threads or the back links in their signatures. Any member found doing so will get banned without any prior warning. Facing any problems or want to complaint about someone, just contact the Staff Members Only Urdu/Roman Urdu or English can be used here, other languages are not allowed and will not be entertained at all.

    Please don’t be silly around here commenting the file contains virus. We cannot help newbies who think scripts or cracks are virus.

    Dismiss Notice
  3. Welcome to the forum of C.M Team Pakistan:

    Get Untouched/Customized/Universal Ghost OSs, Games, Silent /Auto Installers, AIO Packages, Device Drivers, Utilities, Video Projects, Video Tutorials/Editors and much much more..... By Torrent and/or Direct Downloads "Totally For Free"

    Before Starting Your Work Hare Must Read Fourm Rules 

    Dismiss Notice
You are currently not signed in. If you are already a registered user you can LOGIN HERE. If not, you can register and gain access to our wonderful forums, view topics, make posts, and more! So if your not already a user, you can register by CLICKING HERE.

Bollywood Movie Udta Punjab (2016) - 1CD - DVDSCR-Rip - Hindi - x264 - MP3

zaidasghar Jun 19, 2016

Users Viewing Thread (Users: 0, Guests: 0)

  1. zaidasghar

    zaidasghar CM Moderator Staff Member
    • 85/105

    1,058
    161
    85
    [​IMG]
    Ratings: 8.3/10

    Genere: Crime, Drama, Thriller

    General
    Unique ID : 176161522417548485317098247595113069578 (0x848779A0A175AC3A9109CBD2E6B43C0A)
    Complete name : Udta Punjab (2016) - 1CD - DVDSCR-Rip - Hindi - x264 - MP3 - Mafiaking - M2Tv.mkv
    Format : Matroska
    Format version : Version 4 / Version 2
    File size : 696 MiB
    Duration : 2h 28mn
    Overall bit rate : 655 Kbps
    Movie name : Udta Punjab (2016) - 1CD - DVDSCR-Rip - Hindi - x264 - MP3 - Mafiaking - M2Tv
    Encoded date : UTC 2016-06-18 13:28:18
    Writing application : mkvmerge v8.3.0 ('Over the Horizon') 64bit
    Writing library : libebml v1.3.1 + libmatroska v1.4.2

    Video
    ID : 1
    Format : AVC
    Format/Info : Advanced Video Codec
    Format profile : [email protected]
    Format settings, CABAC : Yes
    Format settings, ReFrames : 3 frames
    Codec ID : V_MPEG4/ISO/AVC
    Duration : 2h 28mn
    Bit rate : 590 Kbps
    Width : 640 pixels
    Height : 272 pixels
    Display aspect ratio : 2.35:1
    Frame rate mode : Constant
    Frame rate : 29.970 fps
    Color space : YUV
    Chroma subsampling : 4:2:0
    Bit depth : 8 bits
    Scan type : Progressive
    Bits/(Pixel*Frame) : 0.113
    Stream size : 614 MiB (88%)
    Title : Mafiaking
    Language : Hindi
    Default : Yes
    Forced : No

    Audio
    ID : 2
    Format : MPEG Audio
    Format version : Version 2
    Format profile : Layer 3
    Mode : Joint stereo
    Codec ID : A_MPEG/L3
    Codec ID/Hint : MP3
    Duration : 2h 28mn
    Bit rate mode : Constant
    Bit rate : 64.0 Kbps
    Channel(s) : 2 channels
    Sampling rate : 24.0 KHz
    Compression mode : Lossy
    Stream size : 68.0 MiB (10%)
    Title : Mafiaking
    Writing library : LAME3.99r
    Language : Hindi
    Default : Yes
    Forced : No

    SCREENSHOT
    [​IMG]
    [​IMG]
    [​IMG]
    [​IMG]
    [​IMG]
    [​IMG]
    [​IMG]
    [​IMG]
    [​IMG]
    [​IMG]
    [​IMG]
    [​IMG]
    [​IMG]
    [​IMG]
    DOWNLOAD LINKS
    Hidden Content:
    You must reply before you can see the hidden data contained here.
     
    • Like Like x 1
  2. MALIK ADIL

    MALIK ADIL C.M Member Registered User
    • 15/18

    35
    3
    15
    nice
     
  3. Raees janjua

    Raees janjua C.M Member Registered User
    • 10/18

    39
    0
    10

    You're Guest, you don't have permission to view CmTeamPk link. Please Register or Login to view this link.

    [​IMG]
    Ratings: 8.3/10

    Genere: Crime, Drama, Thriller

    General
    Unique ID : 176161522417548485317098247595113069578 (0x848779A0A175AC3A9109CBD2E6B43C0A)
    Complete name : Udta Punjab (2016) - 1CD - DVDSCR-Rip - Hindi - x264 - MP3 - Mafiaking - M2Tv.mkv
    Format : Matroska
    Format version : Version 4 / Version 2
    File size : 696 MiB
    Duration : 2h 28mn
    Overall bit rate : 655 Kbps
    Movie name : Udta Punjab (2016) - 1CD - DVDSCR-Rip - Hindi - x264 - MP3 - Mafiaking - M2Tv
    Encoded date : UTC 2016-06-18 13:28:18
    Writing application : mkvmerge v8.3.0 ('Over the Horizon') 64bit
    Writing library : libebml v1.3.1 + libmatroska v1.4.2

    Video
    ID : 1
    Format : AVC
    Format/Info : Advanced Video Codec
    Format profile : [email protected]
    Format settings, CABAC : Yes
    Format settings, ReFrames : 3 frames
    Codec ID : V_MPEG4/ISO/AVC
    Duration : 2h 28mn
    Bit rate : 590 Kbps
    Width : 640 pixels
    Height : 272 pixels
    Display aspect ratio : 2.35:1
    Frame rate mode : Constant
    Frame rate : 29.970 fps
    Color space : YUV
    Chroma subsampling : 4:2:0
    Bit depth : 8 bits
    Scan type : Progressive
    Bits/(Pixel*Frame) : 0.113
    Stream size : 614 MiB (88%)
    Title : Mafiaking
    Language : Hindi
    Default : Yes
    Forced : No

    Audio
    ID : 2
    Format : MPEG Audio
    Format version : Version 2
    Format profile : Layer 3
    Mode : Joint stereo
    Codec ID : A_MPEG/L3
    Codec ID/Hint : MP3
    Duration : 2h 28mn
    Bit rate mode : Constant
    Bit rate : 64.0 Kbps
    Channel(s) : 2 channels
    Sampling rate : 24.0 KHz
    Compression mode : Lossy
    Stream size : 68.0 MiB (10%)
    Title : Mafiaking
    Writing library : LAME3.99r
    Language : Hindi
    Default : Yes
    Forced : No

    SCREENSHOT
    [​IMG]
    [​IMG]
    [​IMG]
    [​IMG]
    [​IMG]
    [​IMG]
    [​IMG]
    [​IMG]
    [​IMG]
    [​IMG]
    [​IMG]
    [​IMG]
    [​IMG]
    [​IMG]
    DOWNLOAD LINKS
    ***Hidden content cannot be quoted.***[/HIDE]​
    ***Hidden content cannot be quoted.***[/hide]
    Click to expand...
     

Share This Page